Ожидайте..

 
 
Новости
Документы
Прочее
Авторизоваться
 
 Проблема в упаковки видео снятое камерой JVC возникла практически сразу, а вместе с неи и разочарование.

Что мы имеем?

Видеокамера: JVC GZ-HD7
Комп: Q6600/4G/8600GTS/RAID0
ПО: Sony Vegas Pro 9.0 build 772
Исходник: Файл записаный с камеры MOV06A.tod с разрешением 1920х1080.
Video: MPEG2 Video 1920x1080 25.00fps 28000kbps [Video]
Audio: MPEG Audio 48000Hz stereo 384kbps [Audio]
Subtitle [Subtitle]

Дополнительная информация:
General
ID : 1
Complete name : E:\CAMERA\2010-06-10 прогулка\MOV06A.mpg
Format : BDAV
Format/Info : Blu-ray Video
File size : 3.65 GiB
Duration : 18mn 23s
Overall bit rate : 28.4 Mbps
Maximum Overall bit rate : 30.0 Mbps

Video
ID : 4113 (0x1011)
Menu ID : 1 (0x1)
Format : MPEG Video
Format version : Version 2
Format profile : Main@High
Format settings, BVOP : Yes
Format settings, Matrix : Default
Format_Settings_GOP : M=3, N=12
Duration : 18mn 23s
Bit rate mode : Variable
Bit rate : 26.9 Mbps
Nominal bit rate : 28.0 Mbps
Width : 1 920 pixels
Height : 1 080 pixels
Display aspect ratio : 16:9
Frame rate : 25.000 fps
Resolution : 8 bits
Colorimetry : 4:2:0
Scan type : Interlaced
Scan order : Top Field First
Bits/(Pixel*Frame) : 0.519
Stream size : 3.46 GiB (95%)

Audio
ID : 4129 (0x1021)
Menu ID : 1 (0x1)
Format : MPEG Audio
Format version : Version 1
Format profile : Layer 2
Duration : 18mn 23s
Bit rate mode : Constant
Bit rate : 384 Kbps
Channel(s) : 2 channels
Sampling rate : 48.0 KHz
Video delay : -80ms
Stream size : 50.5 MiB (1%)
Тестируемый момент изображения:

Исходное изображение, два соседних кадра



Исследуемый объект, фонарный столб, ближе



Видео упаковано с размерами 704х396


Видео упаковано с темже размером, но прогресивный скан строк


На этих кадрах видна чересстрочность, но она как-то подозрительно большая (см. уличный фонарь). Это и есть проблема упаковки, т.к. ролик аналогичного типа рипнутый с телефизора и имеющий аналогичный размер имеет гораздо приятнее изображение чем мой оригинальный перепаковынный ролик.
Кстати браузер достаточно четко показывает что реальное масштабирование кадра сильно отличается от результата в вегасе.

Вот и было решено перебрать все варианты и найти те необходимые параметры для хорошего, приятного просмотра фильма.

Итак.

Следующий шаг изменить свойства проекта под требуемый размер. Но это ситуацию не поменяло.
Но зато я заметил, что по виду картинка получаемая в вегасе в два раза хуже чем должна быть.

И наконец-то есть подвижки. Использование другого кодека дало желаемый результат.

Смена кодека дала чтото похожее на требование.

Для сравнения оригинальное изображение


Использовался кодек:
Video: MPEG4 Video (H264) 704x396 25.00fps [Video]


А раз так, то нужно рыть в этом направлении. Вернемся к нормальным настройкам проекта.


MPG



AVI Microsoft Video 1



MainConcept AVC/AAC MPEG4


Теоретически если не брать во внимание цветопередачу, то этот вариант является эталонным.


Оригинальное изображение масштабировано

Для сравнения оригинальное изображение сжато фотошопом


Вопрос: как масштабировать так же качественно как это делает браузер или фотошоп?